WK綜合論壇, WK综合论坛

查看:171 回復:3 發表於 5 天前
本主題由 212love 於 前天 15:53 解除高亮
累計簽到:2133 天
連續簽到:1 天
發表於 6 天前 | 顯示全部樓層 |閱讀模式
VIP精品區,資源無限好賺金任務區,輕松賺金幣
加入VIP,享受高級特權宣傳賺金又升級,超級棒

大河之舞25周年紀念演出 Riverdance.25th.Anniversary.Show., 2020.[MKV / 5.07G] 1080p [複製鏈接]

影視分享
分類: 紀錄片
題材: 家庭 
地區: 英國 
語言: 英语 
格式: MKV 
年份: 2020
資源: BT资源
p2622247428.webp.jpg
* E2 y5 ]3 A; H* C8 H◎译  名 Riverdance 25th Anniversary Show' g+ V; k' z6 h6 Z# I9 L
◎片  名 大河之舞25周年纪念演出
& b- _# r0 J$ x. I8 o◎年  代 2019, o- T4 f0 m# Z0 @9 c
◎产  地 英国
% w2 z% X4 O' C◎类  别 家庭
8 J, J* \) R9 O; v: ?5 w◎上映日期 
# K2 Q! K  n$ ?. g$ x◎豆瓣评分 /10 from 0 users
  c8 K5 ~5 r  U4 M8 X6 g" k◎豆瓣链接 https://movie.douban.com/subject/35215116/5 }' q( ~6 F* _# b2 p1 q9 q
◎导  演 Chris Hunt Chris Hunt
- c% u5 D0 @, K; V" c7 v2 ?0 b2 K& y- [& D; J2 F( W
◎标  签 爱尔兰 | 音乐 | 纪录片 | 歌舞 | 十八 | 英国 | M2S | IRL* h. z" G. i- H, {& `( y
4 I8 b/ d$ C( U# D' p" X3 d5 ~
◎简  介 - @7 y/ {% N5 O: h" ^
4 ~; Y4 A0 b3 h7 F8 V* a) t4 S
  25年前,在欧洲歌唱大赛上的7分钟幕间表演永远改变了爱尔兰舞蹈的面貌,开创性的形式、舞蹈与音乐的完美结合,令电视机前收看的上百万世界观众深深为之折服,沉浸在踢踏舞的魅力中。
: V8 j0 k+ p- Y2 t- V6 E  ( ]( M7 V  R# l' x
  25年间,大河之舞早已成为蜚声海内外的现象级演出,培养出迈克尔·弗莱利、让·巴特勒等一众明星舞者,先后登上伦敦西区与纽约百老汇舞台,获得过包括格莱美音乐奖在内的多项大奖。此次25周年纪念版演出在首演福地都柏林现场录制,这也是大河之舞首次被搬上大银幕。作曲家比尔·惠兰为其重新录制了风格鲜明、旋律动听的配乐,夫妻档主创莫亚·多尔蒂和约翰·麦考根则采用最新的灯光、投影技术,创造性的舞台和服装设计,对这一经久不衰的作品进行了全新改造。
" a- f! D+ V, h  
% B$ a- o6 p0 m: j* }. ]: \0 Q  上千次的踩踏击打,简单明快,激情澎湃。席卷全球的爱尔兰踢踏舞大河之舞被视为一生必看的演出之一。25周年纪念版演出将为更多的家庭献上视听盛宴,续写它的传奇。
& h# D' v* f  }Video
$ C1 v5 Q1 M4 b3 a" y2 u& V. {/ HID : 13 T4 T1 f. h( ^9 i5 A' m6 R1 e
Format : AVC
0 c0 z% p' z* AFormat/Info : Advanced Video Codec
9 t' s6 N6 \9 X! nFormat profile : [email protected]( F0 z% h, a: o: X8 ]/ @" P4 P
Format settings : CABAC / 4 Ref Frames
. R* x$ \% [* b6 g/ hFormat settings, CABAC : Yes
% X6 t) E+ u4 w* cFormat settings, Reference frames : 4 frames& H# {* y! ^& i2 K/ a1 }9 |
Codec ID : V_MPEG4/ISO/AVC) Y0 F' @' }) e6 |$ b% p/ a* k9 [
Duration : 1 h 49 min0 g; `1 v* }0 R" T( {, }
Bit rate mode : Constant/ ]. S) g$ {0 N3 X
Bit rate : 6 500 kb/s, l. y* H7 J9 D
Width : 1 920 pixels
* k* [3 Q! ]4 Y9 d7 N! sHeight : 1 080 pixels
) N: r; ?' D# W: p8 E. P+ WDisplay aspect ratio : 16:9: @5 s2 s- B% Y" ]
Frame rate mode : Constant7 x# Z( u0 n3 w8 e, z$ Q
Frame rate : 29.970 (30000/1001/189150) FPS
& `& ~: K$ O3 B+ r/ \' ?; ]Color space : YUV
5 S, I. V1 l& T# ]/ W' f) a& tChroma subsampling : 4:2:08 h& B% U" ]% l
Bit depth : 8 bits+ c: }3 j) D) o8 h& g7 C
Scan type : Progressive
2 b* M$ a) j  n' S: W! ~Bits/(Pixel*Frame) : 0.105
; X2 V- E% A) Q6 v# D+ HStream size : 4.94 GiB (98%)
( z, M0 ]- f+ ^Language : English
& ?/ g4 ]- b( F, t  o7 N: `Default : Yes
, t- f- x! ?! I, e( mForced : No% J+ D) i& \) K! J! n& T* x% u
6 i- O) h4 x* M/ I
Audio
& z5 I9 w9 T& n& l1 @- KID : 2
& q) z* A- K/ OFormat : AAC LC
6 {" j& A4 [6 LFormat/Info : Advanced Audio Codec Low Complexity
: G: u3 @/ G- W7 Q4 [) aCodec ID : A_AAC-2
2 Z7 _" j9 v* G+ |) f: A: F# xDuration : 1 h 49 min8 q- @5 [1 z) i8 C4 ?+ ]! v
Bit rate : 157 kb/s8 g; N7 _) e1 v/ p) s6 v, Z% H" A
Channel(s) : 2 channels" T% a4 K. ]; _* b% X5 N% u
Channel layout : L R
, z' c& v' @5 j, M1 m& Z7 jSampling rate : 48.0 kHz$ _9 J' O3 ]* B$ H
Frame rate : 46.875 FPS (1024 SPF)
( C" l! P! ?& \4 x" OCompression mode : Lossy
: O1 m7 T4 \# @7 @  x! ?; O' YStream size : 124 MiB (2%)/ O1 ?8 E- F* F& H. A$ m% w
Language : English, ^3 F7 M% P4 \. _9 \, }" T
Default : Yes
) t7 w  t/ p9 y( m+ kForced : No; `4 {! q0 U+ e8 G
; c  C+ ~2 X; p! {
Text0 t  B8 v. H8 C3 K4 |$ q
ID : 35 w  A/ \; X* T! r. k
Format : UTF-8( X' _8 H. n; C* i6 Z( D
Codec ID : S_TEXT/UTF8/ A6 f% ^# a3 M
Codec ID/Info : UTF-8 Plain Text
; [; R# W1 M: n0 R& a% bDuration : 1 h 49 min2 J7 A3 G/ r8 n6 D/ L) t
Bit rate : 20 b/s3 u9 }) G! {( P" t3 ]
Count of elements : 475& b3 {8 O: J: k4 Q7 k
Stream size : 16.3 KiB (0%)( j2 R$ O& L( E8 ~
Language : English
- W7 C9 y0 Q  W3 O" NDefault : No
  M' ?  V8 |( y" I+ n- VForced : No
2 o' b# ~) O7 }9 r

6 s1 M+ L+ r5 S& ?3 @; z+ J! z- ?" N+ @  q

大河之舞25周年紀念演出. MKV.torrent

13.33 KB, 下載次數: 61

累計簽到:1837 天
連續簽到:15 天
發表於 5 天前 | 顯示全部樓層
VIP精品區,資源無限好賺金任務區,輕松賺金幣
加入VIP,享受高級特權宣傳賺金又升級,超級棒
感謝大大的辛勞分享!我會繼續在WK關注大大的文章!
累計簽到:66 天
連續簽到:66 天
發表於 5 天前 | 顯示全部樓層
VIP精品區,資源無限好賺金任務區,輕松賺金幣
加入VIP,享受高級特權宣傳賺金又升級,超級棒
愛爾蘭舞蹈功底非常的紮實整個作品非常的具有藝術性感謝樓主精采分享
累計簽到:754 天
連續簽到:1 天
發表於 5 天前 | 顯示全部樓層
很讚的文章,謝謝咯!相信WK因為有你而更加精彩!

回復樓主 親!! 早上好! 心底有WK、心情就會飛翔,心中要個希望、笑容就會清爽!

 分享同時學會感恩,一句感謝的話語,就是最大的支持!  歡迎交流討論
您需要登錄後才可以回帖 登錄 | 立即注册

本版積分規則

c重要聲明:本論壇是以即時上載言論的方式運作,WK論壇對所有言論的真實性、立場及版權等,不負任何法律責任。而一切言論只代表發佈者個人意見,並非本網站之立場,讀者及用戶務必自行判斷內容之真實性。 由於本論壇受到「即時上載言論」運作方式所規限,故不能完全監察所有言論,若讀者及用戶發現有內容出現「真實性、立場及版權」等問題,請聯絡我們:[email protected]論壇有權刪除任何言論(刪除前或不會作事先警告及通知)| SiteMap[網站地圖]

發表新帖 返回頂部