WK綜合論壇, WK综合论坛

查看:116 回復:1 發表於 5 天前
本主題由 212love 於 前天 15:53 解除高亮
累計簽到:2133 天
連續簽到:1 天
發表於 6 天前 | 顯示全部樓層 |閱讀模式
VIP精品區,資源無限好賺金任務區,輕松賺金幣
加入VIP,享受高級特權宣傳賺金又升級,超級棒

我沒談完的那場戀愛.Between.Us., 2021.[MKV / 10.84G] 國語 2160p [複製鏈接]

影視分享
分類: 電影
題材: 愛情 
地區: 中港台 
語言: 國語 
格式: MKV 
年份: 2021
資源: BT资源

3 O2 i. {0 l4 D6 ~. `7 g
  b5 o; _6 q6 ~- J8 P" R◎译  名 我没谈完的那场恋爱 / 不说再见
& H7 g* c  d; d: f" H◎年  代 2021$ n- T3 R! T& Z3 a& w! _
◎产  地 中国大陆
  G% W, ]* S. A- w" ?: i◎类  别 爱情, \6 A1 f& P! n  }
◎语  言 汉语普通话* ]+ i/ Y" N  z4 E: @
◎上映日期 2021-06-25(中国大陆)1 |* ~& f+ d9 X* W1 V
◎IMDb链接 https://www.imdb.com/title/tt11662974/
+ i& n' f/ p$ S& e3 y' Z& q# F$ W" Y◎豆瓣评分 4.0/10 (3177人评价)/ U2 V+ J- c7 n- {$ {) K5 u
◎豆瓣链接 https://movie.douban.com/subject/35442444/
/ @' F$ ~: ^8 v: {  J0 f◎片  长 97分钟
0 u; \+ V2 W6 e+ N+ C◎导  演 赵宇 Yu Zhao (id:1320916)& m( g$ J& C+ R# @1 v3 A
◎编  剧 赵宇 Yu Zhao (id:1320916)" [% R* G4 C9 R0 T( k& q. O
      陈梦怡 (id:1457200), F( L2 U6 c1 k& u  M1 u4 a
      李绚彦 Xuanyan Li (id:1335262)
5 K1 r$ n$ H: m/ H◎演  员 于文文 Kelly Yu (id:1342252)# L# J$ `$ V' ?( T+ Q
      宋宁峰 Ningfeng Song (id:1313368)
8 z+ e0 ]+ [$ ]- n% ~      刘琦 Mulligan liu (id:1398572)3 P' n7 i. C1 z) f- K' ]; J
      李博 Bo Li (id:1456618)7 T, P" p* Y, U  g2 g
      刘奕 Yi Liu (id:1335268)- ~- r  v$ k+ ]1 t7 c: x/ G, |
      尹菲 Fei Yin (id:1350802)
) d8 s$ g, A7 z- e) J: {9 U8 O      曹力 Li Cao (id:1274714)
# u* _% ?% J* @( ~: g      佘南南 Nannan She (id:1342105)% h8 k$ N0 H+ N2 w: }# q
      殷成阳 Chengyang Yin (id:1408013)! |) X2 z9 k% d! t# l& I

7 A% W: Z" |2 ?# e* ?◎标  签 爱情 / 遗憾 / 音乐 / 梦想 / 国产 / 2021 / 渐冻症 / 怀旧4 B' J7 g! U, |1 u
3 h( _% j& }, s0 j! D
◎简  介2 _0 q2 v! |/ e6 {' T0 C* s  l+ C
  本片讲述了两个千差万别却同样迷茫的年轻音乐人,一个是多年打拼,事业毫无起色,又屡遭生活暴击的和声歌手珊妮,一个是身患重病,隐姓埋名等待死亡降临的前摇滚乐手董东,对生命感到绝望的二人在自我了断时相遇......自杀计划流产,他们的生活也因彼此的出现发生改变。
% M# R; b4 m2 t& [另外一个时空的故事,从珊妮意外发现的一本1970年代的日记中铺陈开来,一段没有下文的悲伤爱情竟然在珊妮的努力下尘埃落定。跟音乐、爱情和人生有关的种种,让珊妮与董东的相遇愈发神奇。千丝万缕中,是否每一种爱都能开花结果? 他们能否找到继续爱这个世界的理由?
) }& |6 i6 c4 |$ s& T! k" ~
, U, L" ?% q0 J$ h& j4 s* j5 @5 dGeneral
- D$ q+ R; H$ XComplete name : 我没谈完的那场恋爱.Between Us 2021 WEB-DL 2160p H265 [email protected]
( f/ F0 C. a+ ZFormat : MPEG-4) ~7 h( p# V) q0 @
Format profile : Base Media
3 e" r. d0 D/ d7 m. v; z0 zCodec ID : isom (isom/iso2/mp41)
' H6 m: \3 f) l" D; a9 zFile size : 10.8 GiB# D) x. ^+ d* y1 O# B+ A
Duration : 1 h 37 min
+ F' V( x9 G) p1 `0 r& DOverall bit rate : 16.0 Mb/s- V3 g% z7 h" }
Recorded date : 2021-07-18T07:16:49.4348074+08:00
. y6 b2 d2 n: u2 e4 B8 iWriting application : Lavf58.32.1044 t! u- S( C# J# C4 o

9 j$ b. O6 m5 J1 `. @' O+ L6 w  IVideo) |# {! v2 N* \6 o+ J
ID : 1
/ X. c, A, T4 a2 }+ H/ rFormat : HEVC
- q& R, w* w9 f+ r0 W- tFormat/Info : High Efficiency Video Coding. [  b1 ^% J* L( T( a' ~: ~
Format profile : [email protected]@Main3 [% I/ o" I( h; D, J. s" X, y
Codec ID : hev19 z* \# c  P" d
Codec ID/Info : High Efficiency Video Coding
$ ]7 d3 S/ K1 v( R6 M9 ^Duration : 1 h 37 min/ v# W/ y7 L, N( n4 }
Bit rate : 15.8 Mb/s1 I% |0 y/ b( H/ r4 b) I( h
Width : 3 840 pixels  S8 N" F7 R: N. U- h4 }
Height : 2 160 pixels
5 W) N$ P* R5 N: M0 o8 wDisplay aspect ratio : 16:9# ~) a+ G# x+ N8 s9 B
Frame rate mode : Constant
- v1 Q: Y& t) ]0 PFrame rate : 24.000 FPS5 p* [$ z: `9 ^+ ^/ i' a: l
Color space : YUV
# \6 p( P* f6 \$ ^2 i( M, @9 T8 lChroma subsampling : 4:2:0
, N7 U9 L" N6 I* S3 \0 o7 b6 ?Bit depth : 8 bits
/ S" v2 u& s( G" `* `Bits/(Pixel*Frame) : 0.079
- L9 Y, r* `! i  v1 \Stream size : 10.7 GiB (99%)
8 y+ Y0 U! y2 |Codec configuration box : hvcC
' b5 i/ _0 J) Q2 r' }, v3 t8 v$ M' i, p. S. Y5 H. c
Audio
% |% O; q8 _1 {0 ]% sID : 29 E1 J3 b- N6 o& _
Format : AAC LC1 A! n/ t7 c/ D  M, g, W+ v
Format/Info : Advanced Audio Codec Low Complexity* f! G: V( v2 G+ r
Codec ID : mp4a-40-2
& u( V5 S6 s2 HDuration : 1 h 37 min
. J" \6 ~; e% G& a3 D4 j2 @Bit rate mode : Constant$ g, O* Z: ?# g) \$ Z$ H
Bit rate : 192 kb/s
; j. @) |9 y) w" TChannel(s) : 2 channels! u. D6 K/ b9 r
Channel layout : L R) ~' G7 \: l, X7 ~  b' `$ G
Sampling rate : 44.1 kHz
$ M) F* l* {; A. J5 n* oFrame rate : 43.066 FPS (1024 SPF)
, u- q2 S8 H. c6 `0 z1 {Compression mode : Lossy
- R9 w. F- X0 b! }7 h, F% k$ cStream size : 132 MiB (1%)/ i7 J% _( E; g
Default : Yes$ @# O* u' v% i, M5 Y
Alternate group : 1
6 Z* x3 I) x5 q: h

6 R5 b: L4 N8 |  `! Z+ L! ?
, L) w. d0 ~' U2 f5 A; g* C- z

我沒談完的那場戀愛. MKV.torrent

31.82 KB, 下載次數: 22

累計簽到:66 天
連續簽到:66 天
發表於 5 天前 | 顯示全部樓層
VIP精品區,資源無限好賺金任務區,輕松賺金幣
加入VIP,享受高級特權宣傳賺金又升級,超級棒
本片講述了兩個千差萬別卻同樣迷茫的年輕音樂人跟音樂、愛情和人生有關的種種....耐人尋味 感謝樓主精采分享

回復樓主 親!! 早上好! 心底有WK、心情就會飛翔,心中要個希望、笑容就會清爽!

 分享同時學會感恩,一句感謝的話語,就是最大的支持!  歡迎交流討論
您需要登錄後才可以回帖 登錄 | 立即注册

本版積分規則

c重要聲明:本論壇是以即時上載言論的方式運作,WK論壇對所有言論的真實性、立場及版權等,不負任何法律責任。而一切言論只代表發佈者個人意見,並非本網站之立場,讀者及用戶務必自行判斷內容之真實性。 由於本論壇受到「即時上載言論」運作方式所規限,故不能完全監察所有言論,若讀者及用戶發現有內容出現「真實性、立場及版權」等問題,請聯絡我們:[email protected]論壇有權刪除任何言論(刪除前或不會作事先警告及通知)| SiteMap[網站地圖]

發表新帖 返回頂部