WK綜合論壇, WK综合论坛

查看:83 回復:2 發表於 2021-6-11 08:47:02
本主題由 212love 於 2021-6-13 10:12 解除高亮
累計簽到:2129 天
連續簽到:1 天
發表於 2021-6-10 10:51:26 | 顯示全部樓層 |閱讀模式
VIP精品區,資源無限好賺金任務區,輕松賺金幣
加入VIP,享受高級特權宣傳賺金又升級,超級棒

自由鳥 Free.Byrd., 2021.[MKV / 5.56G] 1080p [複製鏈接]

影視分享
分類: 電影
題材: 喜劇 
地區: 美國 
語言: 英语 
格式: MKV 
年份: 2021
資源: BT资源
1.png
6 ?2 G0 o: ^& b/ b# q; w1 }* w# \+ ^* {$ n% r+ w" H
◎译  名 自由鸟
% O' U$ f7 Q( v( P◎片  名 Free Byrd! Z$ s+ G) }% g
◎年  代 2021
+ O( x& Q4 u& b7 ^& X8 H◎产  地 美国/ r; A* {9 S& k9 V2 j
◎类  别 喜剧1 t0 l! u$ F( j; z. g
◎语  言 英语2 _. u0 u1 D% j( h
◎上映日期 2021-04-01(美国)& v2 w9 t4 v9 Y
◎豆瓣评分 /10 from 0 users9 K3 c5 {7 e% P* U8 d4 x3 E/ [
◎豆瓣链接 https://movie.douban.com/subject/35420802/
" N2 }& `. C" H/ Z- _◎片  长 89分钟, K1 x( R" {: k/ A- h( \% X
◎主  演 雷蒙德·J·巴里 Raymond J. Barry. V7 H8 P: y) [( j
      桑德瑞拉·艾弗里 Shondrella Avery  h9 g8 T8 g# W1 {& d
      珍妮·扬 Jeanne Young
' u2 H5 z0 k& {
$ K9 h! d9 l4 q8 v9 p* H- G- o7 a◎简  介
' ?0 u8 u/ l( L( {: ?5 I; [; K0 L! U4 G( x4 K1 M
  A middle-aged underachieving van driver, Jay (Randy Nazarian), is assigned to drive an irascible senior, Harry (Raymond J. Barry), to a new home. Along the way they have a series of misadventures, including being picked up by a troupe of burlesque dancers led by Red (Shondrella Avery) and performing an impromptu comedy act. An enlightening journey that gives both men new perspective on life.
6 e8 N$ G1 ~( q& N* }Video
8 N# c# C- O/ q/ ], pID : 1$ N1 I" ^; I( g/ ]2 m
Format : AVC
" Q7 }/ j: a9 p3 d- m. C; d) pFormat/Info : Advanced Video Codec
& f3 f3 Y8 I7 ZFormat profile : [email protected]
% K8 {9 Q9 g  L" S* xFormat settings : CABAC / 4 Ref Frames
+ X6 V9 G; o( ?' ]- eFormat settings, CABAC : Yes9 d2 {+ J+ y7 ?8 X) _1 l1 i
Format settings, Reference frames : 4 frames
. C4 K8 E1 N' P9 J& cCodec ID : V_MPEG4/ISO/AVC# w3 `# V# O* O" e  A6 d- \
Duration : 1 h 29 min
. h0 W6 s, o  A  ?' ^Bit rate mode : Constant+ V, C  K5 }* c, d% H6 j8 `
Bit rate : 8 524 kb/s' I- I0 Y% r( |+ ?/ c2 ~
Nominal bit rate : 10 000 kb/s
4 E1 L3 \( P3 U0 X2 HWidth : 1 920 pixels9 Z, Z3 c# I  I& H0 r. K
Height : 1 040 pixels( R' W+ t  w# Z
Display aspect ratio : 1.85:1
  t% S- F2 l  z" y1 CFrame rate mode : Constant  h, N; @& f* t4 ?, o: @6 m
Frame rate : 23.976 (24000/1001/189150) FPS: Y$ d2 m( J1 a3 u" A9 s4 M
Color space : YUV1 V2 q2 v* z8 Q* {* v
Chroma subsampling : 4:2:07 V/ f) G( I- }% Y
Bit depth : 8 bits1 w9 E* A/ k/ @: c9 g8 G% b
Scan type : Progressive. P. J% ~  W* l4 s7 Z2 I; Y
Bits/(Pixel*Frame) : 0.178' |. h& g& N/ j) }8 j& x* N
Stream size : 5.32 GiB (96%)6 r- c/ C3 Z* u  \6 H
Language : English5 ~( }* J& M' D9 n
Default : Yes4 F" F$ u' W. Y5 K) l5 p. m
Forced : No0 t0 g7 E0 c% c" H; W. H" |
Color range : Limited
: K0 N" {) k) g* OColor primaries : BT.709  ^  A+ O+ y7 I  n7 @+ k
Transfer characteristics : BT.7095 g7 C3 l0 s. _  [9 }7 P
Matrix coefficients : BT.7095 T" z( P" P8 n' E3 E- r6 n

0 ]5 A# o$ l: k8 Q- ^Audio0 g; x+ s# ~( ]) ^6 c( r2 [
ID : 2) u; G4 `3 v$ r& _2 ~
Format : AC-3
0 a9 C! ^2 N9 b6 tFormat/Info : Audio Coding 3
% y' b" H! N. {7 G8 z- M$ U: |Commercial name : Dolby Digital
% }8 g# Q9 l* n8 n! I, X8 B0 iCodec ID : A_AC3
( v, c8 `+ n- u# ?- }Duration : 1 h 29 min) w  u$ }! h2 _2 j/ D& F2 m1 W% u1 A
Bit rate mode : Constant7 b, r: }! n* {, L/ C6 j3 a
Bit rate : 384 kb/s/ I* h# T# S. e
Channel(s) : 6 channels
3 [2 j5 d. S2 x/ I0 O" PChannel layout : L R C LFE Ls Rs
# I' g3 {/ R' e1 x  d6 U# e" VSampling rate : 48.0 kHz" n: Y' w/ q( Y* n1 K& c0 l
Frame rate : 31.250 FPS (1536 SPF)
2 o( l9 T5 l" I* ]+ {Compression mode : Lossy0 N" y/ I6 ~1 M4 C1 w8 d. }3 E
Stream size : 245 MiB (4%)
# y0 h( Q9 C& Y6 b+ zLanguage : English
+ A# d2 Y0 B0 p( L: P: GService kind : Complete Main" G$ _/ ^7 w" x
Default : Yes
2 Q2 N" h6 C9 Y, W% D% I! ~& lForced : No
: y& ]8 Z* j2 H( c, m7 {2 W* @) s6 w, i; }7 D+ |4 t
Text #1
( ]8 I+ h' A6 oID : 3( A! _  q( L0 B- F2 D9 d4 I, h  V! t
Format : UTF-8
  x/ T5 G( T) p# m$ L/ i) mCodec ID : S_TEXT/UTF8; J. d! z8 ]1 i, b: Y) T% S
Codec ID/Info : UTF-8 Plain Text: g" A& w# s4 h9 F+ F5 S+ W! R! P( p
Duration : 1 h 25 min' q  E5 X* {, m1 ^
Bit rate : 74 b/s& T; M( }% @% b1 z. N( ~0 }! s
Count of elements : 1636
  J( B: c6 u7 h- L7 N; sStream size : 46.3 KiB (0%)" h; K, i* y" m  Z
Title : English* }( U) b0 z9 ~9 m  K; W* [
Language : English$ q9 K# z. b; U8 a1 i+ `9 F; W
Default : Yes
& z! k( Y( I2 j5 F' X! |- {Forced : No0 w, c7 c2 S4 Y/ t' y
& {0 X+ x" m' D1 X7 C
Text #2  ^9 A2 k1 u: L  d# H& Y- g
ID : 4
& q2 d0 c5 v2 p+ L, H" gFormat : UTF-8' m4 R* E  B8 k6 J
Codec ID : S_TEXT/UTF8
  C1 M" ^  g. t; I8 [! gCodec ID/Info : UTF-8 Plain Text4 A# K( o" C. e$ C' R, u
Duration : 1 h 25 min
" S* m) e1 B. @( Y  E( |1 nBit rate : 76 b/s
& V4 Q& E* _, F$ V' ?# LCount of elements : 1730( Q1 s1 U4 f& D; l0 S$ `% A
Stream size : 48.0 KiB (0%)
4 x2 x" {% F5 MTitle : English [SDH]
5 j* R( ]. h3 G$ c( oLanguage : English
2 ]4 [0 S3 R6 L3 S: Z$ G+ h0 }: yDefault : No
$ ]; D3 a0 S: C' p0 Y3 @7 H9 vForced : No
% {% Z3 D, J+ Z) }* [  H2 K# `7 G5 G
Text #38 s4 i  v( s3 l  A+ z2 V4 W
ID : 5
. m) j6 ^3 F% ]: J1 JFormat : UTF-8
2 W; `3 d! m. rCodec ID : S_TEXT/UTF8
" x% D5 m7 p' h0 kCodec ID/Info : UTF-8 Plain Text
8 _% @) @/ j7 N- y1 O! ~2 lDuration : 1 h 25 min
3 W3 |/ |$ C: V" cBit rate : 79 b/s
' O; \' J5 p# U  W9 z1 ^# VCount of elements : 1782
! F8 D$ ~7 R& a2 [+ d2 f! yStream size : 49.8 KiB (0%)+ r/ E- x$ c) }4 w$ v" l* C: a
Title : Spanish [SDH]3 e! i  i. p+ [' ^6 D+ }8 ?4 N
Language : Spanish( F* T9 o6 r; o, a6 t
Default : No8 u- G& K9 ], v1 Q% L' M: G
Forced : No
5 m* e! o5 r  _( ~; L4 Y7 W& h! L& R7 Y5 t7 I' p0 z
Menu
5 X4 q( V  V! P" k! o5 u- U' h! c00:00:00.000 : Chapter 1
" i. j& t$ \9 I- K$ `) _* b9 H9 y00:09:41.289 : Chapter 2
" Z& Q( q" ]* X' Q& z0 `00:19:48.521 : Chapter 3
$ _$ {$ Y+ c; l" ]: [6 N0 }0 R0 p00:31:25.009 : Chapter 4
/ W9 ?* B8 u0 {* a$ W2 l/ L00:39:14.144 : Chapter 5
# o8 g" |4 p5 C) a+ o0 m* r9 i) Y9 b4 u00:49:24.587 : Chapter 6" K2 N+ v) z- C( [5 x/ k
00:57:55.179 : Chapter 7
& @3 T# n6 N" ?/ b* w% I01:09:47.724 : Chapter 8" s' Y" \8 q7 y" Z/ J
01:19:56.666 : Chapter 9
4 u/ k/ z- r7 I# x6 a! y01:26:15.753 : Chapter 10
6 D9 F7 L( \4 Q& B9 Q

+ }+ X2 F4 `- a7 d, v% ^, }5 E2 Z$ f3 H' g: I6 h

自由鳥. MKV.torrent

28.41 KB, 下載次數: 5

本帖點贊的會員︰

累計簽到:72 天
連續簽到:1 天
發表於 2021-6-10 16:51:48 | 顯示全部樓層
VIP精品區,資源無限好賺金任務區,輕松賺金幣
加入VIP,享受高級特權宣傳賺金又升級,超級棒
很讚的文章,謝謝咯!相信WK因為有你而更加精彩!
累計簽到:1098 天
連續簽到:43 天
發表於 2021-6-11 08:47:02 | 顯示全部樓層
辛苦了版主,謝謝您無私分享

回復樓主 親!! 早上好! 心底有WK、心情就會飛翔,心中要個希望、笑容就會清爽!

 分享同時學會感恩,一句感謝的話語,就是最大的支持!  歡迎交流討論
您需要登錄後才可以回帖 登錄 | 立即注册

本版積分規則

c重要聲明:本論壇是以即時上載言論的方式運作,WK論壇對所有言論的真實性、立場及版權等,不負任何法律責任。而一切言論只代表發佈者個人意見,並非本網站之立場,讀者及用戶務必自行判斷內容之真實性。 由於本論壇受到「即時上載言論」運作方式所規限,故不能完全監察所有言論,若讀者及用戶發現有內容出現「真實性、立場及版權」等問題,請聯絡我們:[email protected]論壇有權刪除任何言論(刪除前或不會作事先警告及通知)| SiteMap[網站地圖]

發表新帖 返回頂部