WK綜合論壇, WK综合论坛

查看:201 回復:1 發表於 2021-4-9 09:19:06
本主題由 212love 於 2021-4-11 22:30 解除高亮
累計簽到:2127 天
連續簽到:1 天
發表於 2021-4-7 13:13:10 | 顯示全部樓層 |閱讀模式
VIP精品區,資源無限好賺金任務區,輕松賺金幣
加入VIP,享受高級特權宣傳賺金又升級,超級棒

無處可避 Rose., 2020.[MKV / 3.97G] 1080p [複製鏈接]

影視分享
分類: 電影
題材: 恐怖 
地區: 英國 
語言: 英语 
格式: MKV 
年份: 2020
資源: BT资源
1.jpg
, S0 o: c* {9 s
! P2 _$ H0 u" Z% X◎译  名 无处可避/Rose: A Love Story0 g; n9 D4 k8 }" E6 a2 {
◎片  名 Rose& ~. L7 _% H) i
◎年  代 2020
% y/ B' O% F) k$ N3 }7 s◎产  地 英国$ Z+ e0 C0 }. n5 y, J7 a
◎类  别 恐怖! b0 U9 m# M$ J& a
◎语  言 英语
( q- y- O7 F4 o: Y; P- u% n◎上映日期 2020-10-13(英国)
  X, E, p" P6 m4 n◎IMDb评分 7.2/10 from 60 users) q0 K# M, A& s" T
◎IMDb链接 https://www.imdb.com/title/tt9643228/
$ N9 e5 A) |3 r; S( C4 P◎豆瓣评分 /10 from 0 users
1 H% \( g1 V! h2 T$ M◎豆瓣链接 https://movie.douban.com/subject/34607685/- H+ O  K; r3 m9 y( e1 m8 x  @
◎片  长 86分钟
" o7 P5 C: n1 I1 V3 f: P) `; Q! \◎编  剧 马特·斯托克 Matt Stokoe7 C* r& R& r. S# v9 p7 a6 u
◎主  演 苏菲·兰朵 Sophie Rundle
$ Q" o+ T4 r/ I9 E. `( K, S      内森·麦克伦 Nathan McMullen
9 @0 I8 q+ R- o, V% v      马特·斯托克 Matt Stokoe
1 m, C2 z- b& E5 h" B( |      奥利维亚·格兰特 Olivia Grant( Z# C" z( [4 Z/ _/ m, ?! G
8 F! k) d+ u9 L$ P6 b6 H8 @, k
◎标  签 英国电影 | 苏菲兰格 | 恐怖
$ z8 x( L5 F) B: D, T9 `  M$ Z8 j6 N& K6 d/ G
◎简  介 - m7 K" e. W: e
) q; r9 i( E2 y4 A5 ?
  Gripped by a violent, terrifying illness, Rose lives in seclusion with her husband, but the arrival of a stranger shatters the fragile refuge they have built.
( s  m2 w6 p6 e$ c5 d+ m
- K. a) W  }9 S4 i◎获奖情况& K3 @- _: q) X& N/ K
3 O# N% R7 F) a, Y% ~7 U: `$ K
  第23届英国独立电影奖 ?(2020)( q7 J0 |' ]" u* \- k0 y- O5 ~; I
  瑞丹斯奖(提名)3 J$ y: J% N3 s7 m" y
Video6 F! N. B8 N: M; p4 b' ^
ID : 1( t: }- b% r' @( q' F
Format : AVC: O( Q) w0 B, `; ~$ S) F
Format/Info : Advanced Video Codec
, E/ A" B& ]. N9 [3 h( `; q4 VFormat profile : [email protected]% E' G0 a9 l2 |, g3 Q: a; u
Format settings : CABAC / 4 Ref Frames
) X9 Y2 U# T9 PFormat settings, CABAC : Yes
8 n' ~5 y, q% X+ u; O4 o; zFormat settings, Reference frames : 4 frames& ]. A. ]& d/ O$ ~
Codec ID : V_MPEG4/ISO/AVC
" }  U% W- W; }9 M: d; L, W. [Duration : 1 h 26 min
" T- E1 ]" c6 Q& W& SBit rate mode : Constant
+ o7 a9 P' E) v9 }7 ]  F6 ]6 H1 _+ JBit rate : 5 926 kb/s9 V) K( ?0 D9 R; t0 k/ k0 X! G/ U
Nominal bit rate : 10 000 kb/s$ f' W9 d2 q! n  x5 H9 S
Width : 1 920 pixels& x1 ]/ r( E/ K% K; _
Height : 1 080 pixels
! _% u! w/ z9 m8 ]! g8 k  ~Display aspect ratio : 16:9$ |8 ~8 q  K9 Z4 P+ P8 v
Frame rate mode : Constant
4 X$ ?1 {' J- h5 XFrame rate : 24.000 FPS# @8 B! H8 C; |! R' w+ H
Color space : YUV; R- x' D( r# b# h/ x1 I
Chroma subsampling : 4:2:0
8 {# Z! a% V, WBit depth : 8 bits3 l3 F% c( P( o$ ]* K* b
Scan type : Progressive% Q, A, a: \) w% Z) g
Bits/(Pixel*Frame) : 0.119
! Y7 U, H! e7 @6 i: Y9 YStream size : 3.58 GiB (90%)
" e2 _4 L6 L! G1 b$ X5 ZDefault : Yes
/ S( M8 `5 S: t' [4 TForced : No
' B/ B. {7 F; B9 L  ?! w1 MColor range : Limited
( `  J, n( L' a, d7 {6 c- bColor primaries : BT.709. s; T9 Q# y) c( [
Transfer characteristics : BT.7090 y1 L5 x; c0 A. p6 K- d; }% h# S
Matrix coefficients : BT.709
6 _  S% A) }1 E" b- ~' _; p! M; n: d0 t  q
Audio
$ Z4 J1 h4 e6 c0 i' i5 EID : 2
. d& _- F4 F# q4 H* P3 AFormat : E-AC-3
  \, b- y' M, u: w% f: y# zFormat/Info : Enhanced AC-3
4 X$ d; D8 ~9 X/ {* x- eCommercial name : Dolby Digital Plus
: D7 c2 b9 z. R9 ^1 `; i# _9 TCodec ID : A_EAC3
, ~0 z& l' E8 gDuration : 1 h 26 min
# ^' M' h: Z% |0 x4 B, d& i2 UBit rate mode : Constant
% J5 O+ T5 u  HBit rate : 640 kb/s$ ?/ `4 r/ m( ~7 A9 q6 p
Channel(s) : 6 channels
+ G$ u6 a/ E' m! d6 ^; ?: FChannel layout : L R C LFE Ls Rs8 a, S. y/ L' `% z- l0 N2 n* S
Sampling rate : 48.0 kHz
- u8 M# A' F; g4 a, z! o* AFrame rate : 31.250 FPS (1536 SPF)! V9 u' w7 X8 v/ [! X% f
Compression mode : Lossy
: _/ p; [8 J( s6 F$ J; d, oStream size : 396 MiB (10%)
7 C! a; @  r4 w% r! B6 j( p) VLanguage : English
, K/ ~* a0 ^8 z6 \, C0 TService kind : Complete Main
! {) @- [) Y3 ], vDefault : Yes
/ g4 ?3 _6 c: V8 n$ qForced : No
) ?$ b- _  S8 Z% C
" N* g: ?! X$ C0 z

無處可避 MKV.torrent

40.18 KB, 下載次數: 29

本帖點贊的會員︰

累計簽到:1039 天
連續簽到:137 天
發表於 2021-4-9 09:19:06 | 顯示全部樓層
VIP精品區,資源無限好賺金任務區,輕松賺金幣
加入VIP,享受高級特權宣傳賺金又升級,超級棒
辛苦了版主,謝謝您無私分享

回復樓主 親!! 現在是淩晨!妳失眠啦?餓啦?通宵加班?還是想WK啦?

 分享同時學會感恩,一句感謝的話語,就是最大的支持!  歡迎交流討論
您需要登錄後才可以回帖 登錄 | 立即注册

本版積分規則

c重要聲明:本論壇是以即時上載言論的方式運作,WK論壇對所有言論的真實性、立場及版權等,不負任何法律責任。而一切言論只代表發佈者個人意見,並非本網站之立場,讀者及用戶務必自行判斷內容之真實性。 由於本論壇受到「即時上載言論」運作方式所規限,故不能完全監察所有言論,若讀者及用戶發現有內容出現「真實性、立場及版權」等問題,請聯絡我們:[email protected]論壇有權刪除任何言論(刪除前或不會作事先警告及通知)| SiteMap[網站地圖]

發表新帖 返回頂部