WK綜合論壇, WK综合论坛

查看:69 回復:2 發表於 5 天前
本主題由 212love 於 4 天前 刪除回復
累計簽到:2124 天
連續簽到:1 天
發表於 2021-1-10 10:38:50 | 顯示全部樓層 |閱讀模式
VIP精品區,資源無限好賺金任務區,輕松賺金幣
加入VIP,享受高級特權宣傳賺金又升級,超級棒

勇士迷蹤 The.Legion., 2020.[MKV / 4.38G] [複製鏈接]

影視分享
分類: 電影
題材: 動作 冒險 曆史 
地區: 美國 
語言: 英语 
格式: MKV 
年份: 2020
資源: BT资源
1.jpg % z% O) Q! g6 m  `
, q( z( [7 X3 m  g' ^
◎译  名 勇士迷踪/The Legion/军团的踪迹
7 O- w' _/ N' g9 q9 ~◎片  名 Legionnaire's Trail% _( q) d0 K9 w/ i, R" k
◎年  代 2020- r) v8 D2 V3 S
◎产  地 美国, ?1 j& W2 }: j, t3 m2 R
◎类  别 动作 / 历史 / 冒险
, J) O  G# c  m( h8 X/ a9 F◎语  言 英语
7 ~  k' q4 R: y4 M/ S$ V1 t◎上映日期 2020-05-08(美国)  w# h3 V) D7 A; i
◎IMDb评分 /10 from 527 users; s7 E; v1 m# I) g4 J
◎IMDb链接 https://www.imdb.com/title/tt8318284/- A- ?9 z6 `1 E& n# S0 e2 `
◎豆瓣评分 /10 from 0 users
/ t0 x( z' G; R+ u" p3 T" q% A3 F; q◎豆瓣链接 https://movie.douban.com/subject/34445270/
4 M, ?* w) h2 P- ~5 V. e◎片  长 96分钟0 b5 }/ U8 E* b. ]( T6 E1 S$ z1 P
◎导  演 何塞·马根 Jose Magan7 p  O4 {; ~2 o' @6 o0 g3 ^2 a
◎编  剧 Alberto Vázquez Figueroa / 何塞·马根 Jose Magan: Y( l. V- U3 d# R
◎主  演 米基·洛克 Mickey Rourke$ q) Z, z9 z& c+ u
      白灵 Ling Bai
$ ?. b$ Q* s* |4 X      弗拉基米尔库利奇 Vladimir Kulich
: A& t1 d. B5 L* }      乔昆姆·德·阿尔梅达 Joaquim de Almeida( K9 O- u. u1 U8 I* w
      马克西姆·马特维耶夫 Maksim Matveev8 Y' y; t1 S0 v% O

* {4 k- S( p3 N; Q6 K; ?3 R% Z2 e; u◎标  签 白灵 | 跑 | 米基洛基 | [歐美]
- _1 v+ k  `/ q
0 @& Z+ p5 }& x- t◎简  介 3 J8 v5 j7 S. x% `' e
. x1 U; N" w. M4 o+ T. t6 k+ b
  Nero's reign. The invasion of Parthia has been a fiasco. Two Roman legions have been brought to a stand still in the snowy mountains of Armenia, and the men are dying slowly in the cold. The rest of the Roman army is in Syria, only two weeks march away but the mountains swarm with Parthian patrols. Noreno, a half-Roman, is entrusted the mission of crossing the mountains to ask for help. However, he might not be the best option, he's an expert runner, but he despises Rome.
1 O* x1 n. I7 s% X5 FVideo4 A8 U) o2 i" H9 K8 }/ a: q7 [8 l
ID : 1
( O6 {+ t" `! a/ v4 l4 pFormat : AVC+ m  ~$ ?: e6 L# {) J
Format/Info : Advanced Video Codec
1 V4 M) V9 n+ a( }; g  d- a0 qFormat profile : [email protected]  e6 |* v- L6 b, H( j
Format settings : CABAC / 5 Ref Frames* t8 B1 {: F0 c( i1 m
Format settings, CABAC : Yes
- v. z5 Y5 R5 {7 b- e% O0 W4 rFormat settings, Reference frames : 5 frames
" B# `9 j: J/ Q, ]9 l8 OCodec ID : V_MPEG4/ISO/AVC1 s9 D* Q  M3 i
Duration : 1 h 35 min1 c: Q* v+ a& f' M1 F
Bit rate : 4 803 kb/s' u: H; B' S1 @3 A+ g
Width : 1 920 pixels; e* H$ z2 L4 R$ @$ e2 @5 u! R/ u2 y
Height : 804 pixels0 s, l; k; [& ^1 N0 Y/ o$ G2 b% \# T+ B9 E
Display aspect ratio : 2.40:1
& E9 A7 k3 {2 C0 N3 ]. [1 ]Frame rate mode : Constant
; s8 G9 h) A* i3 S' C5 `Frame rate : 23.976 (24000/1001/189150) FPS
, E8 Y2 w' w  T) \# LColor space : YUV
4 J% c: N. R6 x& Z2 QChroma subsampling : 4:2:03 _2 X# a. D  [3 w7 `
Bit depth : 8 bits  z! g6 w, f; p  W  b
Scan type : Progressive
5 Z* |/ C* ]- L  Y' IBits/(Pixel*Frame) : 0.130
0 [, l/ O$ i9 Q- _# }& ?- |Stream size : 3.21 GiB (73%)
& m2 p% W0 j+ x) ~Writing library : x264 core 161 r3027 41212772 k; }8 g: N. ~6 H+ T
Encoding settings : cabac=1 / ref=5 / deblock=1:-3:-3 / analyse=0x3:0x133 / me=umh / subme=9 / psy=1 / psy_rd=1.00:0.00 / mixed_ref=1 / me_range=16 / chroma_me=1 / trellis=2 / 8x8dct=1 / cqm=0 / deadzone=21,11 / fast_pskip=0 / chroma_qp_offset=-2 / threads=25 / lookahead_threads=2 / sliced_threads=0 / nr=0 / decimate=1 / interlaced=0 / bluray_compat=0 / constrained_intra=0 / bframes=3 / b_pyramid=2 / b_adapt=2 / b_bias=0 / direct=3 / weightb=1 / open_gop=0 / weightp=2 / keyint=250 / keyint_min=23 / scenecut=40 / intra_refresh=0 / rc_lookahead=60 / rc=crf / mbtree=1 / crf=17.0 / qcomp=0.60 / qpmin=0 / qpmax=69 / qpstep=4 / ip_ratio=1.40 / aq=1:1.00! O) K/ C) `5 v6 e- h9 z3 e
Language : English
$ _3 [5 Q" d4 IDefault : Yes/ ]- G6 l- ~4 }5 y7 X2 L
Forced : No8 t3 r' r7 S4 I8 M$ |9 d; F
0 F: s) D0 V1 v4 [% s
Audio  x: u9 x; Q' ?4 L. Q
ID : 2
4 k% b/ x0 O& i, ~) o1 Q9 D, J) P. mFormat : DTS XLL
3 Y8 B% m; v6 X4 Z, r( HFormat/Info : Digital Theater Systems
  v2 v. ]$ b* C2 B& rCommercial name : DTS-HD Master Audio
, s3 v9 y, E) i+ E, ~Codec ID : A_DTS
& F& b5 |$ g2 O2 h  XDuration : 1 h 35 min* c/ ?7 s4 {6 s* D3 f
Bit rate mode : Variable
; N) ]+ w5 a* r! I& H' ?Bit rate : 1 732 kb/s0 N7 W! ~/ c' H. f* ?/ L
Channel(s) : 6 channels
  d* Z4 y+ {, n) ~$ N! _Channel layout : C L R Ls Rs LFE
* U9 D& C$ b8 `8 O  k) D9 PSampling rate : 48.0 kHz
3 a# j3 ]7 ?/ }& ^( lFrame rate : 93.750 FPS (512 SPF)
" K% ]6 Q. E& s0 ^: EBit depth : 16 bits5 q) a+ i( ^& l0 t4 i
Compression mode : Lossless
$ w5 H( J5 D( \' z. I+ R# q6 SStream size : 1.16 GiB (26%): Q/ z/ M  x8 x3 V5 O9 f! l8 s, W) d$ \
Language : English
& u. W# k7 A: Z/ u# \Default : Yes
& S- E+ U7 q' i# Y2 h' b8 o7 cForced : No
4 n0 w* v2 {; j/ N+ l; d7 f4 @" D! A6 e; k0 ^
Text
; x+ C) z, R+ m- G% V; y& k! JID : 3
% k- Q0 D2 a+ W' a# Z+ |; FFormat : PGS
/ n9 @  X4 J  v6 `) p, aMuxing mode : zlib
; F% S, X2 A' {: @4 ~/ YCodec ID : S_HDMV/PGS1 M5 a  `2 |0 @. J/ A
Codec ID/Info : Picture based subtitle format used on BDs/HD-DVDs
/ p2 Q1 p: u8 [1 A# }Duration : 1 h 29 min! B0 T- v: y$ [
Bit rate : 15.7 kb/s
  B- b1 c7 {8 ?1 Y% X" [/ @Count of elements : 1009
- b7 F" A. _. s) r7 \Stream size : 10.1 MiB (0%): G/ d$ _2 }+ I  l7 j) G
Language : German6 |$ g3 ^( K2 x: }  {
Default : No; i# o* s% b+ `( C# t
Forced : No+ Z5 N- E, v" ?
- Q$ w$ S/ G" q# d- ]/ ~3 M
Menu
% ?2 J3 w$ ~0 Y$ S( u8 R1 H00:00:00.000 : en:Kapitel 01& b. Q( A& |2 V# R5 u4 G2 n
00:04:11.084 : en:Kapitel 028 {7 ?* v9 x$ F. D3 \$ ?
00:11:20.430 : en:Kapitel 03
# |2 n) P! J9 H& ?, X00:21:18.694 : en:Kapitel 04; z+ x+ y% b5 j
00:28:52.105 : en:Kapitel 05
& X2 N2 l4 _  {+ j  c- A00:37:21.448 : en:Kapitel 06
  j( L1 n2 n2 d$ A00:43:15.384 : en:Kapitel 07: K3 w* o6 I7 D! e
00:46:50.099 : en:Kapitel 08
$ l3 P. m/ E8 e2 A) k6 A8 R00:54:44.990 : en:Kapitel 091 f) ?+ L2 }& `7 Z- C* s
01:05:41.229 : en:Kapitel 10
2 p% P! G2 i. u& t01:17:22.471 : en:Kapitel 11; s! x$ w! j' r* `0 M7 W. ~$ X
01:30:39.100 : en:Kapitel 12
2 U" Z) O( Z6 C7 q3 C7 {2 n

+ o0 H8 ?! j  X# `% p% F. v6 S1 P8 x  w. ]5 z( {3 K

勇士迷蹤. MKV.torrent

44.41 KB, 下載次數: 45

累計簽到:2 天
連續簽到:1 天
發表於 2021-1-10 17:15:35 | 顯示全部樓層
VIP精品區,資源無限好賺金任務區,輕松賺金幣
加入VIP,享受高級特權宣傳賺金又升級,超級棒
感謝大大的辛勞分享!我會繼續在WK關注大大的文章!

尚未簽到

發表於 5 天前 | 顯示全部樓層
相信WK因為有你而更加精彩!

回復樓主 親!! 現在是淩晨!妳失眠啦?餓啦?通宵加班?還是想WK啦?

 分享同時學會感恩,一句感謝的話語,就是最大的支持!  歡迎交流討論
您需要登錄後才可以回帖 登錄 | 立即注册

本版積分規則

c重要聲明:本論壇是以即時上載言論的方式運作,WK論壇對所有言論的真實性、立場及版權等,不負任何法律責任。而一切言論只代表發佈者個人意見,並非本網站之立場,讀者及用戶務必自行判斷內容之真實性。 由於本論壇受到「即時上載言論」運作方式所規限,故不能完全監察所有言論,若讀者及用戶發現有內容出現「真實性、立場及版權」等問題,請聯絡我們:[email protected]論壇有權刪除任何言論(刪除前或不會作事先警告及通知)| SiteMap[網站地圖]

發表新帖 返回頂部